<?xml version="1.0" standalone="no"?>
<!DOCTYPE svg PUBLIC "-//W3C//DTD SVG 1.1//EN" "http://www.w3.org/Graphics/SVG/1.1/DTD/svg11.dtd" >
<svg xmlns="http://www.w3.org/2000/svg">
<metadata></metadata>
<defs>
<font id="futurademibold" horiz-adv-x="681" >
<font-face units-per-em="2048" ascent="1638" descent="-410" />
<missing-glyph horiz-adv-x="589" />
<glyph horiz-adv-x="0" />
<glyph unicode="&#xd;" />
<glyph unicode=" "  horiz-adv-x="589" />
<glyph unicode="&#x09;" horiz-adv-x="589" />
<glyph unicode="&#xa0;" horiz-adv-x="589" />
<glyph unicode="!" horiz-adv-x="587" d="M111 154q-2 78 52 134t130 56t129 -55t57 -131q4 -74 -52 -129.5t-134 -55.5q-74 0 -127 53.5t-55 127.5zM141 469v1155h303v-1155h-303z" />
<glyph unicode="&#x22;" horiz-adv-x="661" d="M111 1626h163l-32 -555h-101zM389 1626h166l-33 -555h-102z" />
<glyph unicode="#" horiz-adv-x="1484" d="M104 494v172h273l74 374h-256v160h282l86 428h193l-90 -428h299l82 428h192l-88 -428h227v-168h-258l-67 -366h239v-179h-272l-107 -473h-180l105 480h-306l-100 -480h-188l106 480h-246zM567 670h297l74 366h-297z" />
<glyph unicode="$" horiz-adv-x="1318" d="M104 215l185 223q57 -72 125 -114q88 -53 151 -60v463q-414 86 -420 449q-2 176 123 309t295 157v207h205v-200q98 0 209 -52q104 -43 188 -133l-157 -207q-8 4 -48 34t-67 42q-72 33 -119 45v-409q432 -115 434 -494q2 -186 -115.5 -316t-318.5 -182v-223h-205v215 q-131 12 -252 76q-145 72 -213 170zM463 1202q-2 -55 24.5 -96t75.5 -57v301q-41 -12 -70.5 -52.5t-29.5 -95.5zM774 285q70 35 96.5 75.5t28.5 108.5q2 63 -36 113.5t-89 72.5v-370z" />
<glyph unicode="%" horiz-adv-x="1679" d="M84 1184q-6 193 84 319.5t254 124.5q102 -2 173 -47t103.5 -118.5t45 -142t10.5 -142.5q-6 -180 -94.5 -304t-243.5 -122q-319 4 -332 432zM266 1184q4 -55 9.5 -89t19.5 -77t45 -64.5t78 -21.5q61 2 95 44t41 88t9 116q10 264 -145 264q-55 0 -92 -40t-50.5 -96.5 t-9.5 -123.5zM416 -10l663 1612h176l-647 -1612h-192zM946 412q-6 193 84 319.5t254 124.5q102 -2 173 -47t103.5 -119t45 -142t10.5 -142q-6 -180 -94 -304.5t-244 -121.5q-319 4 -332 432zM1128 412q4 -45 7.5 -71t12.5 -65.5t24.5 -61t43 -38t64.5 -16.5q61 0 95 43 t41 89t9 116q10 264 -145 264q-55 0 -92 -40t-50.5 -96.5t-9.5 -123.5z" />
<glyph unicode="&#x26;" horiz-adv-x="1751" d="M111 403q0 61 21.5 121t49 102t74.5 90t76.5 72.5t79 62.5t59.5 46q-35 27 -84 136.5t-47 201.5q8 184 125 306t313 124q186 2 310 -113.5t120 -281.5q-2 -133 -68.5 -220t-209.5 -198l190 -219l213 176l193 -223l-217 -178l366 -408h-424l-172 201q-47 -29 -122.5 -84.5 t-117.5 -82t-123 -50t-181 -25.5q-172 -2 -299 133t-125 311zM446 315q41 -47 92.5 -56t112 19.5t107.5 61.5t119 92l-207 242q-121 -72 -205 -179.5t-19 -179.5zM649 1255q2 -55 35 -115.5t57 -74.5q41 31 72 55.5t51.5 46t30.5 48t10 63.5q-4 104 -123 104 q-55 0 -95 -37.5t-38 -89.5z" />
<glyph unicode="'" horiz-adv-x="356" d="M94 1626h166l-35 -555h-100z" />
<glyph unicode="(" horiz-adv-x="745" d="M96 727q-2 164 29 327t92.5 314.5t114.5 256t131 239.5l211 -92q-139 -264 -206 -490.5t-81 -521.5q-6 -156 17.5 -306.5t77 -287.5t90 -213t98.5 -191l-215 -110q-350 504 -359 1075z" />
<glyph unicode=")" horiz-adv-x="745" d="M94 1772l211 92q78 -135 131 -239.5t114.5 -256t92.5 -314.5t29 -327q-8 -569 -357 -1075l-217 110q61 115 98 191t90.5 213t77 287.5t17.5 306.5q-14 295 -81 521t-206 491z" />
<glyph unicode="*" horiz-adv-x="761" d="M104 1341l148 84l-139 91l63 104l137 -82v166h123v-176l170 92l60 -102l-160 -97l135 -88l-66 -102l-139 84v-168h-123v170l-147 -86z" />
<glyph unicode="+" horiz-adv-x="1329" d="M104 420v278h424v426h281v-426h418v-278h-420v-424h-281v424h-422z" />
<glyph unicode="," horiz-adv-x="708" d="M94 -360l211 718h297l-321 -718h-187z" />
<glyph unicode="-" horiz-adv-x="1019" d="M111 420v278h823v-278h-823z" />
<glyph unicode="." horiz-adv-x="581" d="M104 186q2 76 53.5 127.5t125.5 55.5q76 2 133 -51.5t63 -131.5q4 -76 -55 -132t-137 -54q-76 2 -131.5 57.5t-51.5 128.5z" />
<glyph unicode="/" horiz-adv-x="1720" d="M137 -8l1354 1732l158 -127l-1366 -1730z" />
<glyph unicode="0" horiz-adv-x="1472" d="M92 801q-10 367 162 609.5t483 238.5q158 -2 277 -62.5t185.5 -149.5t107.5 -209t52 -224t7 -213q-8 -217 -76.5 -397.5t-216 -297t-348.5 -114.5q-608 10 -633 819zM410 805q6 -92 12 -150.5t26.5 -139.5t52 -128t90 -82t138.5 -33t138.5 36t89 81t50 124t24.5 136.5 t7 145.5q14 559 -309 559q-117 0 -193.5 -84t-105.5 -205t-20 -260z" />
<glyph unicode="1" horiz-adv-x="739" d="M102 1352v272h529v-1624h-314v1352h-215z" />
<glyph unicode="2" horiz-adv-x="1386" d="M94 0l561 653q37 39 88.5 107.5t116 188.5t68.5 204q6 111 -79 181.5t-165 66.5q-123 -6 -182.5 -87t-40.5 -239h-316q-20 281 136.5 436.5t404.5 157.5q225 0 387 -143.5t162 -370.5q0 -137 -66.5 -279.5t-144.5 -234.5t-180.5 -204.5t-136.5 -162.5h579v-274h-1192z " />
<glyph unicode="3" horiz-adv-x="1318" d="M94 463h285q4 -102 75.5 -174t172.5 -72q111 -4 188.5 68.5t75.5 177.5q-4 127 -91 192.5t-255 51.5v241q152 -8 234.5 54.5t86.5 177.5q4 92 -63.5 159.5t-171.5 65.5q-195 -6 -225 -215h-285q6 229 162.5 352t378.5 119q209 -6 361.5 -140.5t152.5 -332.5 q-2 -225 -203 -334q106 -41 178 -149.5t74 -239.5q6 -221 -172.5 -365.5t-409.5 -140.5t-384 140.5t-165 363.5z" />
<glyph unicode="4" horiz-adv-x="1427" d="M94 395v154l735 1077h277v-973h219v-256h-217v-397h-295v395h-719zM471 647h334v506z" />
<glyph unicode="5" horiz-adv-x="1304" d="M96 141l62 275q147 -94 214.5 -122t182.5 -30q152 -2 241 79t91 212q2 135 -115 217t-270 78q-145 -6 -291 -74l111 850h757v-256h-528l-33 -272q283 20 486.5 -135.5t201.5 -411.5q0 -246 -162.5 -405.5t-441.5 -168.5q-133 -6 -283.5 55.5t-222.5 108.5z" />
<glyph unicode="6" horiz-adv-x="1437" d="M104 532q2 143 65.5 306t135.5 274t189.5 275.5t162.5 236.5h379q-14 -33 -104 -151.5t-119 -159.5q-164 -244 -184 -281q80 25 164 25q240 0 385 -145.5t153 -368.5q8 -250 -168 -416t-461 -162q-252 4 -426 157.5t-172 409.5zM424 510q-2 -117 86 -202t207 -83 q125 2 207 87t84 206q0 117 -86 201t-205 82q-129 -2 -209 -85t-84 -206z" />
<glyph unicode="7" horiz-adv-x="1452" d="M104 1354v272h1239l-958 -1649l-268 148l721 1229h-734z" />
<glyph unicode="8" horiz-adv-x="1306" d="M94 477q2 123 66.5 220.5t171.5 144.5q-70 29 -142.5 136t-64.5 216q18 219 161.5 331.5t364.5 123.5q205 8 359.5 -125t152.5 -326q-4 -119 -46 -196.5t-148 -159.5q225 -126 235 -402q6 -209 -162 -340t-393 -131q-223 4 -389 145.5t-166 362.5zM434 1174 q2 -90 65.5 -146.5t149.5 -54.5q96 2 148.5 57t54.5 141q4 86 -57.5 146.5t-155.5 62.5q-84 2 -145.5 -60.5t-59.5 -145.5zM444 467q4 -94 62.5 -152.5t144.5 -54.5q96 2 146.5 59.5t50.5 145.5q2 92 -55.5 157.5t-149.5 67.5q-84 2 -144.5 -64.5t-54.5 -158.5z" />
<glyph unicode="9" horiz-adv-x="1425" d="M104 1083q0 254 167 417t448 159q252 -4 426 -157.5t172 -409.5q0 -143 -63.5 -306t-134 -271.5t-189.5 -275.5t-164 -239h-375q20 31 101 144.5t118 166.5q164 238 183 273q-59 -20 -162 -21q-240 -2 -384.5 147.5t-142.5 372.5zM416 1106q-2 -117 84 -201t205 -80 q127 2 206.5 85t83.5 204q2 119 -82 203t-202 84q-125 -2 -210 -88t-85 -207z" />
<glyph unicode=":" horiz-adv-x="589" d="M111 190q2 76 56 129.5t130 53.5q78 0 133 -54.5t55 -130.5q2 -78 -53 -134t-135 -54q-76 2 -132 57.5t-54 132.5zM111 811q2 76 56 129t130 53q78 0 133 -54t55 -130q2 -78 -53 -134.5t-135 -53.5q-76 2 -132 57t-54 133z" />
<glyph unicode=";" horiz-adv-x="724" d="M104 -360l211 718h295l-321 -718h-185zM244 811q2 76 57 129t131 53t131 -54t55 -130q2 -78 -53 -134.5t-133 -54t-133 57.5t-55 133z" />
<glyph unicode="&#x3c;" horiz-adv-x="1370" d="M94 516v160l1168 500v-205l-883 -381l889 -385v-205z" />
<glyph unicode="=" horiz-adv-x="1357" d="M111 307v178h1155v-178h-1155zM111 682v178h1155v-178h-1155z" />
<glyph unicode="&#x3e;" horiz-adv-x="1378" d="M104 0v205l887 385l-882 381v205l1165 -502v-158z" />
<glyph unicode="?" horiz-adv-x="1259" d="M84 1135q14 262 157.5 388t368.5 128q252 2 406.5 -142.5t150.5 -392.5q-4 -190 -95 -318t-284 -136v-201h-342v426q379 -33 392 243q4 88 -57.5 162t-170.5 72q-193 -4 -211 -229h-315zM446 150q0 76 53.5 131t127.5 55q76 0 130 -55t56 -131q0 -76 -50 -128.5 t-128 -52.5q-76 -2 -131 51.5t-58 129.5z" />
<glyph unicode="@" horiz-adv-x="1597" d="M57 741q2 309 220.5 529.5t525.5 220.5q283 0 495.5 -169t212.5 -429q0 -227 -146 -408.5t-345 -181.5q-61 0 -99 42t-44 85l-9 41l-61 -70q-78 -90 -197 -90q-121 -2 -198.5 95.5t-77.5 226.5q0 190 152.5 325.5t304.5 135.5q129 0 159 -95l21 -57l41 127l176 4 l-160 -590q-12 -35 -5 -79t38 -44q125 0 232.5 167t107.5 350q0 160 -88 278.5t-221.5 173.5t-288.5 55q-262 0 -448.5 -186t-186.5 -448q0 -272 190.5 -468t460.5 -196q125 0 227.5 30.5t159 73.5t96 86t54.5 74l12 31h135l-20 -41q-18 -41 -70.5 -100.5t-125.5 -118 t-197.5 -99t-274.5 -40.5q-313 0 -536.5 223t-221.5 536zM518 541q0 -70 34 -120t105 -50q70 0 135.5 90t102.5 203.5t37 195.5q0 80 -32 130t-89 50q-100 0 -196.5 -169t-96.5 -330z" />
<glyph unicode="A" horiz-adv-x="1716" d="M53 0l625 1626h326l653 -1626h-350l-127 328h-656l-121 -328h-350zM627 610h438l-223 588z" />
<glyph unicode="B" horiz-adv-x="1378" d="M139 0v1626h637q166 0 278.5 -117.5t123.5 -302.5v-16q0 -93 -44 -172q-48 -86 -126 -133q125 -37 216 -152t91 -258q-4 -207 -137.5 -341t-339.5 -134h-699zM465 981h184q176 0 180 197v11q0 65 -43 116q-47 55 -133 55h-188v-379zM469 274h279q98 0 158 64 q58 62 57 150v6q-2 90 -58.5 149t-154.5 59h-281v-428z" />
<glyph unicode="C" horiz-adv-x="1421" d="M102 809q2 344 239 583.5t595 249.5q11 0 22 1q33 0 66 -5q45 -6 83 -16t77 -23.5t69.5 -28t61.5 -26.5v-321q-55 39 -167 82q-100 39 -191 39q-11 0 -21 -1q-223 -10 -363.5 -168.5t-142.5 -381.5v-6q0 -213 144 -361q146 -150 378 -150q182 0 363 109v-309 q-164 -88 -387 -96q-14 -1 -29 -1q-199 1 -377 105q-190 112 -305 307t-115 418z" />
<glyph unicode="D" horiz-adv-x="1533" d="M145 0v1626h635q221 0 382 -111.5t236 -282.5t79 -376v-21q-1 -120 -21 -232q-22 -122 -77.5 -232.5t-136.5 -192.5t-201.5 -130t-270.5 -48h-625zM483 303h242q115 0 200 46t131 126t66.5 171.5t20.5 195.5q0 190 -108.5 335.5t-286.5 145.5h-265v-1020z" />
<glyph unicode="E" horiz-adv-x="1107" d="M139 0v1626h908v-303h-551v-340h551v-295h-562v-385h562v-303h-908z" />
<glyph unicode="F" horiz-adv-x="1103" d="M131 0v1626h899v-303h-563v-340h541v-295h-541v-688h-336z" />
<glyph unicode="G" horiz-adv-x="1849" d="M104 817q2 225 116 415.5t306.5 301.5t417.5 111q219 0 420 -110t274 -253l-213 -217q-76 129 -201 211q-116 76 -255 76h-21q-238 -8 -368.5 -153.5t-137.5 -369.5v-23q0 -211 140 -369q149 -167 379 -169q166 0 284.5 84t140.5 248h-438v289h797q1 -33 1 -64 q0 -386 -204 -603q-221 -234 -590 -247h-23q-214 0 -401 108q-196 114 -310 310.5t-114 423.5z" />
<glyph unicode="H" horiz-adv-x="1523" d="M94 0v1626h338v-643h653v643h338v-1626h-338v688h-653v-688h-338z" />
<glyph unicode="I" horiz-adv-x="690" d="M172 0v1626h336v-1626h-336z" />
<glyph unicode="J" horiz-adv-x="1116" d="M45 289l244 186q10 -86 62 -155q51 -68 128 -68h4q131 4 131 182v1192h338v-1237q0 -209 -126 -321q-124 -111 -306 -111h-6q-170 2 -298 89t-171 243z" />
<glyph unicode="K" horiz-adv-x="1513" d="M139 0v1626h340v-659l539 659h409l-639 -754l674 -872h-401l-569 760v-760h-353z" />
<glyph unicode="L" horiz-adv-x="1028" d="M139 0v1626h336v-1323h494v-303h-830z" />
<glyph unicode="M" horiz-adv-x="2050" d="M74 0l241 1626h334l391 -1024l377 1024h338l266 -1626h-317l-170 1079l-391 -1079h-201l-397 1051l-154 -1051h-317z" />
<glyph unicode="N" horiz-adv-x="1632" d="M94 0v1626h330l774 -1059v1059h330v-1626h-318l-774 1092v-1092h-342z" />
<glyph unicode="O" horiz-adv-x="1871" d="M94 817q2 227 117 420t308.5 304.5t420.5 111.5q338 -2 579.5 -245t247.5 -585v-12q0 -337 -229 -581q-233 -250 -577 -263q-15 -1 -30 -1q-212 0 -401 108q-202 114 -320 313q-116 196 -116 422v8zM416 797q4 -227 154 -378q149 -149 360 -150q3 0 6 1q242 2 366 156 t128 383v6q0 225 -140 371q-142 148 -358 153h-10q-208 0 -357 -156.5t-149 -374.5v-11z" />
<glyph unicode="P" horiz-adv-x="1286" d="M145 0v1626h562q231 0 373.5 -135t148.5 -346v-18q0 -203 -130 -349q-134 -151 -360 -151h-6h-250v-627h-338zM483 905h195q92 1 154 63q61 61 61 154v6q-2 98 -57.5 162t-173.5 64h-179v-449z" />
<glyph unicode="Q" horiz-adv-x="1839" d="M104 817q4 336 237.5 576.5t567.5 246.5h16q332 0 574 -236q248 -243 248 -587q0 -389 -289 -633l187 -250l-302 -57l-124 166q-154 -66 -308 -66q-336 6 -573 254q-234 246 -234 580v6zM432 829v-17q0 -233 160 -388q134 -129 332 -129q48 0 100 8l-174 244l307 55 l115 -166q82 80 118 165t40 200v11q0 208 -142 362q-147 159 -362 161h-6q-217 0 -350 -145q-134 -148 -138 -361z" />
<glyph unicode="R" horiz-adv-x="1366" d="M96 0v1626h561q231 0 371.5 -134t140.5 -345q-2 -174 -117.5 -305t-273.5 -152l484 -690h-383l-447 655v-655h-336zM434 897h129q102 -1 180 63q72 59 72 148v14q-6 106 -57 162.5t-183 56.5h-141v-444z" />
<glyph unicode="S" horiz-adv-x="1282" d="M104 201l191 235q84 -94 152.5 -132t152.5 -42h13q71 0 131 40q66 44 73 149v5q0 60 -44 110q-46 52 -105 81l-244 117q-139 68 -200.5 172t-63.5 254v10q0 198 152 328q156 133 366 133q258 -2 473 -195l-203 -211q-27 25 -56.5 49.5t-57 43t-66.5 30t-82 11.5 q-82 -3 -134 -51q-50 -47 -50 -126v-6q0 -119 133 -178l258 -119q135 -59 210 -171.5t81 -264.5v-15q0 -204 -162 -350q-166 -149 -389 -149h-6q-291 0 -523 242z" />
<glyph unicode="T" horiz-adv-x="1169" d="M94 1323v303h981v-303h-309v-1323h-346v1323h-326z" />
<glyph unicode="U" horiz-adv-x="1476" d="M104 557v1069h336v-1046q0 -164 85 -240t225 -76q143 0 225 72t82 248v1042h325v-1100q0 -143 -54 -253.5t-145 -176t-200 -98.5t-229 -35h-15q-275 1 -453 143q-182 146 -182 451z" />
<glyph unicode="V" horiz-adv-x="1624" d="M66 1626h346l407 -1089l400 1089h344l-615 -1626h-258z" />
<glyph unicode="W" horiz-adv-x="2301" d="M66 1626h329l312 -1051l325 1051h254l328 -1057l317 1057h322l-496 -1626h-272l-328 1083l-328 -1083h-272z" />
<glyph unicode="X" horiz-adv-x="1775" d="M104 0l594 872l-528 754h389l336 -500l328 500h376l-522 -758l606 -868h-387l-407 614l-410 -614h-375z" />
<glyph unicode="Y" horiz-adv-x="1501" d="M53 1626h371l326 -536l309 536h373l-504 -856v-770h-334v752z" />
<glyph unicode="Z" horiz-adv-x="1519" d="M111 0l798 1323h-725v303h1262l-782 -1323h751v-303h-1304z" />
<glyph unicode="[" horiz-adv-x="733" d="M92 -369v2220h535v-227h-238v-1755h242v-238h-539z" />
<glyph unicode="\" horiz-adv-x="1720" d="M129 1597l160 127l1353 -1732l-145 -125z" />
<glyph unicode="]" horiz-adv-x="741" d="M90 -131h242v1755h-238v227h535v-2220h-539v238z" />
<glyph unicode="^" horiz-adv-x="962" d="M119 1305l373 315l374 -320l-133 -100l-241 201l-240 -201z" />
<glyph unicode="_" horiz-adv-x="1406" d="M10 -293h1489v-74h-1489v74z" />
<glyph unicode="`" horiz-adv-x="722" d="M94 1626h301l244 -338h-184z" />
<glyph unicode="a" horiz-adv-x="1374" d="M98 514v12q0 220 146 388q148 171 361 171h5q190 -2 348 -143v121h306v-1063h-320v98q-135 -127 -326 -135h-10q-208 0 -356 161q-150 165 -154 390zM424 522v-5q0 -111 81 -189q83 -80 193 -80h5q108 0 188 81.5t80 191.5v5q-2 115 -82 196q-78 79 -189 79h-6 q-121 -4 -194.5 -84t-75.5 -195z" />
<glyph unicode="b" horiz-adv-x="1353" d="M133 0v1772h324v-811q131 123 327 124h16q224 0 358 -160q132 -159 132 -378v-19q-4 -227 -150 -393q-143 -162 -352 -162h-10q-190 6 -342 158v-131h-303zM436 526q4 -109 77 -185.5t183 -76.5q109 0 182 72.5t83 189.5q1 15 1 30q0 94 -54 163q-64 80 -206 82h-5 q-111 0 -185 -80q-76 -82 -76 -195z" />
<glyph unicode="c" horiz-adv-x="1036" d="M96 534q4 228 166 389.5t387 163.5q111 0 262 -63v-268q-2 0 -50 19.5t-88 28.5t-79 9q-123 -2 -194.5 -81t-71.5 -193q2 -113 76 -192t194 -79q115 2 230 82v-297q-152 -71 -268 -71h-3q-231 0 -398 162q-163 159 -163 380v10z" />
<glyph unicode="d" horiz-adv-x="1363" d="M53 528v13q1 228 133 398q132 169 352 169h15q180 -6 336 -147v811h323v-1772h-307v150q-57 -55 -149 -104.5t-189 -51.5h-20q-193 0 -337 150q-150 158 -157 384zM379 543q10 -115 84 -188.5t180 -73.5q113 0 185.5 75.5t74.5 186.5v6q1 109 -73 185q-76 78 -191 83h-5 q-114 0 -188 -83q-67 -77 -68 -171q0 -10 1 -20z" />
<glyph unicode="e" horiz-adv-x="1290" d="M104 569q4 225 143.5 378t381.5 155q261 0 413 -168q145 -160 144 -443v-30h-764q14 -95 80 -155q63 -58 158 -58h6q147 0 241 170l234 -152q-191 -289 -473 -289h-11q-245 5 -401 179q-152 169 -152 401v12zM424 666h424q-12 199 -213 202h-6q-87 0 -143 -62 q-58 -64 -62 -140z" />
<glyph unicode="f" horiz-adv-x="833" d="M104 778v285h105v350q0 184 92 277q88 90 230 90h12q82 -2 172 -29v-274q-37 18 -73 18h-7q-53 -4 -81 -43t-28 -94v-295h199v-287h-203v-776h-311v778h-107z" />
<glyph unicode="g" horiz-adv-x="1370" d="M61 543v6q0 217 139 379q140 164 355 166q94 0 166 -23.5t104.5 -47.5t98.5 -79v119h303v-1081q0 -199 -165 -314q-162 -112 -401 -112h-8q-139 2 -254.5 42t-198.5 135t-87 232h342q23 -78 66.5 -118t146.5 -40q106 2 181 48.5t75 150.5v182q-43 -66 -148 -129 q-95 -58 -191 -58q-9 0 -18 1q-238 10 -371 162.5t-135 378.5zM389 553q2 -102 78 -176t178 -74q102 2 178 77q74 73 74 170v5q-4 111 -72.5 182.5t-189.5 71.5h-5q-99 0 -170 -75t-71 -175v-6z" />
<glyph unicode="h" horiz-adv-x="1218" d="M104 0v1772h318v-826q145 148 323 148h5q160 -2 263 -108.5t103 -260.5v-725h-315v647q0 72 -44 118t-126 48h-5q-78 1 -138 -55q-62 -58 -62 -133v-625h-322z" />
<glyph unicode="i" d="M158 1436q0 82 59 139q57 55 134 55h5q76 -2 131.5 -57t55.5 -133v-5q-1 -75 -55 -129q-56 -54 -136 -57q-78 0 -135 55.5t-59 131.5zM188 0v1063h320v-1063h-320z" />
<glyph unicode="j" horiz-adv-x="692" d="M137 1432v5q0 79 56.5 136t135.5 57h5q78 -2 132 -59.5t56 -136.5v-6q0 -76 -55 -132q-57 -57 -135 -57q-88 2 -141.5 56.5t-53.5 136.5zM176 -422v1485h320v-1485h-320z" />
<glyph unicode="k" horiz-adv-x="1300" d="M162 0v1772h327v-1113l324 404h401l-452 -488l498 -575h-392l-385 459v-459h-321z" />
<glyph unicode="l" horiz-adv-x="661" d="M160 0v1772h319v-1772h-319z" />
<glyph unicode="m" horiz-adv-x="1843" d="M111 0v1063h317v-133q55 57 85 81.5t80 44t118 19.5q53 0 95 -6t71.5 -17.5t54 -25.5t42 -33.5t37 -41t38.5 -46.5q53 85 142 135q81 46 176 45h19q170 -8 262.5 -121.5t92.5 -279.5v-684h-320v608q0 113 -43 156q-41 41 -120 41h-7q-74 0 -119 -55.5t-45 -141.5v-608 h-325v596q0 98 -30 148.5t-109 52.5h-5q-72 1 -128 -61q-58 -64 -58 -144v-592h-321z" />
<glyph unicode="n" horiz-adv-x="1200" d="M88 0v1063h320v-117q145 148 320 148h5q160 -2 263.5 -108.5t103.5 -260.5v-725h-316v647q0 72 -43 118t-125 48h-5q-77 1 -137 -55q-62 -58 -62 -133v-625h-324z" />
<glyph unicode="o" horiz-adv-x="1390" d="M96 534q2 240 181.5 405t427.5 165q237 0 409 -172q170 -170 170 -405v-5q-2 -244 -176 -407.5t-422 -163.5q-242 0 -417 172q-173 170 -173 406v5zM424 524q4 -109 82 -187.5t186 -80.5q113 0 195 80q76 75 76 175v15q-6 121 -87 200q-77 75 -183 75h-11 q-108 -2 -184 -84q-74 -80 -74 -187v-6z" />
<glyph unicode="p" horiz-adv-x="1386" d="M111 -422v1485h305v-150q193 197 366 197q225 -2 365.5 -172t140.5 -401v-6q0 -221 -135 -384q-137 -165 -356 -167h-4q-170 0 -347 159v-561h-335zM436 534.5q0 -112.5 82 -193.5q80 -79 191 -79h6q117 0 189 88q69 85 69 187v6q-2 113 -84 188.5t-191 75.5 q-113 0 -187.5 -80t-74.5 -192.5z" />
<glyph unicode="q" horiz-adv-x="1378" d="M104 537q0 229 142.5 395t369.5 168q186 0 345 -164v127h311v-1485h-316v528q-152 -141 -333 -141h-5q-147 2 -266 85t-183.5 212t-64.5 275zM442 535v-5q0 -99 70 -180q72 -82 190 -86h11q104 0 181 74q81 79 83 190q0 111 -76 190t-188 79q-111 0 -190 -75t-81 -187z " />
<glyph unicode="r" horiz-adv-x="897" d="M129 0v1063h326v-145q68 94 155 135q87 42 178 42q12 0 23 -1v-312q-19 11 -79 11q-17 0 -37 -1q-91 -4 -142 -44q-98 -76 -98 -224v-524h-326z" />
<glyph unicode="s" horiz-adv-x="1032" d="M104 248l240 84q12 -72 66.5 -103.5t107.5 -31.5q41 0 73 27.5t32 68.5q-2 39 -26 62.5t-97 52.5l-135 47q-223 82 -228 295q0 154 121 256q116 98 269 98h12q125 0 219 -61.5t141 -174.5l-248 -96q-31 61 -50 79.5t-62 20.5q-33 0 -57.5 -20.5t-26.5 -56.5 q-2 -31 15 -53.5t36.5 -32t54.5 -23.5l135 -53q228 -91 236 -320v-5q0 -151 -117 -255q-115 -102 -271 -102h-12q-156 2 -275.5 81t-152.5 216z" />
<glyph unicode="t" horiz-adv-x="811" d="M94 797v266h113v328h328v-328h172v-266h-181v-797h-319v797h-113z" />
<glyph unicode="u" horiz-adv-x="1230" d="M94 403v660h326v-627q0 -94 54 -138t138 -44q82 2 137.5 53t55.5 139v617h315v-668q0 -137 -78.5 -238.5t-193.5 -149.5q-110 -46 -230 -46h-10q-229 2 -371.5 124t-142.5 318z" />
<glyph unicode="v" horiz-adv-x="1353" d="M51 1063h340l287 -612l268 612h334l-467 -1063h-258z" />
<glyph unicode="w" horiz-adv-x="1968" d="M66 1063h325l279 -608l198 608h246l232 -592l227 592h330l-443 -1063h-235l-230 635l-213 -635h-258z" />
<glyph unicode="x" horiz-adv-x="1355" d="M78 1063h414l227 -287l219 287h377l-426 -516l452 -547h-376l-254 319l-236 -319h-393l440 539z" />
<glyph unicode="y" horiz-adv-x="1361" d="M66 1063h356l268 -612l264 612h340l-678 -1485h-331l233 504z" />
<glyph unicode="z" horiz-adv-x="1187" d="M104 0l496 797h-455v266h975l-491 -793h454v-270h-979z" />
<glyph unicode="{" horiz-adv-x="817" d="M98 659v230l58 4q49 2 82 41q16 20 18 51t-2 59v494q0 88 16.5 147.5t65.5 120.5q76 90 203 90h172v-268h-56q-55 0 -73 -20q-20 -20 -21 -62v-522q0 -117 -57 -178q-29 -31 -85.5 -52.5t-72.5 -21.5q94 -4 154 -70q55 -59 55 -167v-529q0 -55 12 -74q29 -41 95 -41h51 v-260h-158q-145 0 -238 109q-45 51 -57 106.5t-12 147.5v491q0 31 1 55.5t-7.5 49t-28.5 41.5q-35 27 -63 26z" />
<glyph unicode="|" horiz-adv-x="475" d="M160 -543l2 2171l157 -4l7 -2169z" />
<glyph unicode="}" horiz-adv-x="817" d="M94 -109h51q68 0 93 39q14 20 14 72v530q0 104 55 168q63 70 154 70q-16 0 -72.5 20.5t-85.5 51.5q-57 66 -57 182v520q0 39 -21 60q-20 25 -73 24h-56v266h172q131 0 203 -90q49 -59 65.5 -118.5t16.5 -149.5v-496q-4 -27 -2 -57.5t18 -50.5q33 -39 82 -41l58 -4v-230 l-52 -2q-35 -2 -63 -28q-20 -16 -28.5 -40t-7.5 -48.5t1 -55.5v-491q0 -90 -12 -145.5t-58 -108.5q-92 -111 -237 -111h-158v264z" />
<glyph unicode="~" horiz-adv-x="970" d="M94 1354l25 63q14 37 33.5 76t63.5 85t89 48q78 6 148 -47l135 -98q70 -53 108 -27q25 16 42.5 53t27.5 72l20 45l107 -55l-12 -43q-29 -88 -79 -151.5t-108 -76.5q-78 -14 -174 60l-108 84q-57 43 -97 39q-12 -2 -24 -13.5t-22.5 -24.5t-18.5 -30.5t-14.5 -31 t-10.5 -23.5l-4 -10l-14 -45z" />
<glyph unicode="&#xa1;" horiz-adv-x="589" d="M109 960.5q0 75.5 49 128t127 52.5q78 2 133 -51t55 -129q2 -76 -51 -131.5t-129 -55.5q-74 -2 -129 54.5t-55 132zM141 -504v1157h303v-1157h-303z" />
<glyph unicode="&#xa2;" horiz-adv-x="1011" d="M92 872q0 190 110.5 336t284.5 197v223h205v-213q49 0 92 -10q74 -18 107 -37v-285q-102 63 -213 62q-121 -2 -189.5 -80t-68.5 -190.5t75.5 -195.5t182.5 -77q102 2 227 84v-295q-51 -37 -108 -55q-39 -12 -109 -21v-213h-199v228q-178 39 -288.5 191.5t-108.5 350.5z " />
<glyph unicode="&#xa3;" horiz-adv-x="1327" d="M104 0v295q147 12 227.5 96t84.5 215q0 41 -8 82h-299v197h202q-29 33 -75 129t-39 178q12 215 156.5 334t353.5 119q201 0 348 -102.5t194 -274.5l-225 -123q-45 90 -123 165.5t-176 73.5q-90 -2 -147.5 -59t-59.5 -154q0 -104 125 -284h369v-195h-293q10 -106 -29 -203 q-37 -96 -123 -165q47 -14 136.5 -35t167 -19t118.5 19.5t115 89.5l115 -266q-94 -68 -167 -91.5t-184 -27.5q-72 -2 -171 17.5t-113 25.5l-43 10q-156 35 -232 33q-123 -2 -205 -80z" />
<glyph unicode="&#xa5;" horiz-adv-x="1464" d="M53 1626h371l326 -536l309 536h373l-328 -555h219v-178h-324l-71 -123v-72h395v-178h-395v-520h-334v520h-426v178h426v54l-88 141h-338v178h227z" />
<glyph unicode="&#xa7;" horiz-adv-x="1462" d="M109 -31h399l10 -57q12 -68 82 -111t129 -34q66 10 110 46.5t46 96.5q4 96 -137 164l-412 205q-231 113 -227 372q2 102 63 199.5t125 134.5q-109 131 -100 297q10 170 153.5 273.5t335.5 111.5q193 6 342.5 -83t173.5 -259l8 -72h-342l-14 43q-18 53 -68.5 80t-103.5 10 q-74 -18 -92 -96q-18 -96 88 -147l446 -236q250 -131 234 -364q-6 -90 -59.5 -186.5t-127.5 -141.5q109 -131 111 -297q2 -201 -168 -329t-397 -136q-233 -8 -415.5 117t-190.5 336zM440 750q-8 -43 9.5 -80t58.5 -58l455 -239q55 38 61 106q4 94 -78 135l-438 228 q-59 -31 -68 -92z" />
<glyph unicode="&#xa8;" horiz-adv-x="954" d="M104 1493q2 61 44 96t91.5 33t90.5 -40t39 -99.5t-45 -96t-92.5 -32.5t-89.5 39t-38 100zM580 1485q0 61 42 97t91 37t91 -35t42 -97q0 -84 -66.5 -119t-133 -1t-66.5 118z" />
<glyph unicode="&#xa9;" horiz-adv-x="1773" d="M94 812.5q0 148.5 51.5 289.5t146.5 252.5t248.5 179.5t344 68t344 -68t249 -179.5t146.5 -252.5t51 -289.5t-51 -290t-146.5 -253t-249 -179t-344 -67.5t-344 67.5t-248.5 179t-146.5 253t-51.5 290zM178 812q0 -132 46 -259t131 -226.5t222.5 -160t307.5 -60.5 t307 60.5t222 160t131 226.5t46 259t-46 259t-131 226.5t-222 160t-307 60.5t-307.5 -60.5t-222.5 -160t-131 -226.5t-46 -259zM471 805q-2 207 109.5 358.5t308.5 145.5q141 -4 243.5 -74t122.5 -195l9 -36h-95l-6 30q-20 90 -100 141.5t-174 49.5q-168 -6 -247 -126 t-79 -292q0 -176 63.5 -283.5t239.5 -128.5q106 -12 198.5 64t115.5 192h94q-29 -156 -142.5 -251t-271.5 -85q-106 6 -185 49.5t-122 113t-62.5 150.5t-19.5 177z" />
<glyph unicode="&#xaa;" horiz-adv-x="1028" d="M129 733v80h823v-80h-823zM133 1247.5q-4 149.5 95.5 264t242.5 112.5q125 0 229 -94v78h201v-701h-209v66q-94 -86 -217 -88q-141 -2 -239.5 105.5t-102.5 257zM348 1251q-2 -74 52.5 -127t128 -53t128 54.5t52.5 130t-54.5 129t-128.5 51.5q-80 -2 -129 -55.5 t-49 -129.5z" />
<glyph unicode="&#xab;" horiz-adv-x="1247" d="M111 510v227l460 340v-223l-327 -236l319 -225v-237zM688 510v227l461 340v-223l-328 -236l322 -225v-237z" />
<glyph unicode="&#xac;" horiz-adv-x="1808" d="M104 551v123h1582v-674h-132v551h-1450z" />
<glyph unicode="&#xad;" horiz-adv-x="1019" d="M111 420v278h823v-278h-823z" />
<glyph unicode="&#xae;" horiz-adv-x="1779" d="M100 812.5q0 148.5 51.5 289.5t146.5 252.5t248.5 179.5t344 68t344.5 -68t249 -179.5t146 -252.5t51 -289.5t-51 -290t-146 -253t-249 -179t-344.5 -67.5t-344 67.5t-248.5 179t-146.5 253t-51.5 290zM184 812q0 -132 46 -259t131 -226.5t222.5 -160t307.5 -60.5 t307 60.5t222 160t131 226.5t46 259t-46 259t-131 226.5t-222 160t-307 60.5t-307.5 -60.5t-222.5 -160t-131 -226.5t-46 -259zM571 328v948h347q150 0 243.5 -52.5t104.5 -197.5q12 -166 -156 -233q27 -14 51.5 -32t40.5 -46q31 -63 27 -170t18 -183q5 -11 23 -34h-101h-6 q-23 45 -22.5 136t-13 164.5t-70.5 104.5q-23 12 -46.5 17.5t-45 4.5t-52.5 -1h-251v-426h-91zM662 1196l2 -360h264q109 0 179.5 40t68.5 140q-4 180 -242 180h-272z" />
<glyph unicode="&#xb0;" horiz-adv-x="714" d="M102 1367q0 97 70 178t192.5 81t191.5 -81t69 -178t-69 -178t-191.5 -81t-192.5 81t-70 178zM193.5 1371.5q-3.5 -62.5 39.5 -117t123 -58.5q80 -2 126 48t49.5 112.5t-39.5 117t-123 56.5q-80 4 -126 -46t-49.5 -112.5z" />
<glyph unicode="&#xb1;" horiz-adv-x="1130" d="M102 -2v84h910v-84h-910zM119 668l2 114h395v398h107v-400h397v-112h-399v-400h-105v400h-397z" />
<glyph unicode="&#xb4;" horiz-adv-x="747" d="M94 1286l246 338h299l-358 -338h-187z" />
<glyph unicode="&#xb6;" horiz-adv-x="1454" d="M100 1151q10 197 147.5 335t332.5 138h774v-199h-140v-1775h-213v1780h-196v-1782h-221v987l-99 12q-178 23 -285.5 169.5t-99.5 334.5z" />
<glyph unicode="&#xb7;" horiz-adv-x="581" d="M113 815q2 76 53 127t127 55q76 2 132 -51t62 -131q6 -76 -53 -132t-137 -54q-76 2 -131 57t-53 129z" />
<glyph unicode="&#xba;" horiz-adv-x="1044" d="M94 739v80h824v-80h-824zM129 1251q2 158 120 267.5t281 107.5q158 0 270.5 -112.5t112.5 -270.5q-2 -162 -116.5 -269.5t-278.5 -107.5q-160 0 -274.5 114t-114.5 271zM344 1243q4 -72 55.5 -123t122.5 -53q74 0 128 54t50 126q-4 78 -57 130.5t-127 49.5 q-72 -2 -122 -56t-50 -128z" />
<glyph unicode="&#xbb;" horiz-adv-x="1241" d="M98 854v223l461 -340v-227l-453 -354v237l320 225zM678 854v223l461 -340v-227l-453 -354v237l318 225z" />
<glyph unicode="&#xbf;" horiz-adv-x="1298" d="M104 -6q4 190 93.5 318t277.5 137v200h342v-426q-213 8 -298 -49t-91 -197q-4 -88 56.5 -161.5t170.5 -71.5q94 2 153.5 60.5t68.5 170.5h292q-6 -274 -143 -390.5t-370.5 -127t-394.5 139t-157 397.5zM455 961q-2 76 48 128t128 52q76 2 131 -51t55 -129 q2 -76 -51 -131.5t-127 -55.5q-76 -2 -130 54.5t-54 132.5z" />
<glyph unicode="&#xc0;" horiz-adv-x="1724" d="M57 -4l625 1626h328l653 -1626h-350l-129 328h-654l-122 -328h-351zM592 2079h301l244 -338h-187zM631 606h440l-223 586z" />
<glyph unicode="&#xc1;" horiz-adv-x="1712" d="M53 0l625 1626h326l653 -1626h-350l-127 328h-656l-121 -328h-350zM577 1732l246 338h299l-358 -338h-187zM627 610h438l-223 588z" />
<glyph unicode="&#xc2;" horiz-adv-x="1724" d="M53 0l625 1626h326l653 -1626h-350l-127 328h-656l-121 -328h-350zM479 1840l373 315l374 -320l-133 -100l-241 201l-240 -201zM627 610h438l-223 588z" />
<glyph unicode="&#xc3;" horiz-adv-x="1712" d="M53 0l625 1626h326l653 -1626h-350l-127 328h-656l-121 -328h-350zM465 1792l25 63q14 37 33.5 76t63.5 85t89 48q78 6 148 -47l135 -98q70 -53 108 -27q25 16 42.5 53t27.5 72l20 45l107 -55l-12 -43q-29 -88 -79 -151.5t-108 -76.5q-78 -14 -174 60l-108 84 q-57 43 -97 39q-12 -2 -24 -13.5t-22.5 -24.5t-18.5 -30.5t-14.5 -31t-10.5 -23.5l-4 -10l-14 -45zM627 610h438l-223 588z" />
<glyph unicode="&#xc4;" horiz-adv-x="1724" d="M53 0l625 1626h326l653 -1626h-350l-127 328h-656l-121 -328h-350zM483 1872q2 61 44 96t91.5 33t90.5 -40t39 -99.5t-45 -96t-92.5 -32.5t-89.5 39t-38 100zM627 610h438l-223 588zM959 1864q0 61 42 97t91 37t91 -35t42 -97q0 -84 -66.5 -119t-133 -1t-66.5 118z" />
<glyph unicode="&#xc5;" horiz-adv-x="1720" d="M53 0l625 1626h326l653 -1626h-350l-127 328h-656l-121 -328h-350zM590 1999q0 96 69.5 177t192.5 81t192.5 -81t69.5 -177t-69.5 -177t-192.5 -81t-192.5 81t-69.5 177zM627 610h438l-223 588zM718 2065.5q-36 -74.5 4 -146.5t132 -70q70 2 107.5 48.5t35.5 101.5 t-42 100t-109 43q-92 -2 -128 -76.5z" />
<glyph unicode="&#xc6;" horiz-adv-x="2289" d="M57 -6l1252 1632h905v-285h-551v-358h551v-295h-561v-385h561v-303h-903v322h-656l-247 -328h-351zM868 604h439l4 586z" />
<glyph unicode="&#xc7;" horiz-adv-x="1419" d="M104 809q0 344 238 583.5t596 249.5q43 2 88 -4t83 -16t77 -23.5t69.5 -28t61.5 -26.5v-321q-55 39 -167 82t-212 38q-223 -10 -364.5 -169.5t-141.5 -380.5q-2 -217 144.5 -367t377.5 -150q182 0 363 109v-309q-164 -88 -389 -96q-215 -8 -405.5 103.5t-304.5 307 t-114 418.5zM610 -436l232 358l180 -76l-277 -354z" />
<glyph unicode="&#xc8;" horiz-adv-x="1155" d="M139 0v1626h908v-303h-551v-340h551v-295h-562v-385h562v-303h-908zM268 2072h301l244 -338h-184z" />
<glyph unicode="&#xc9;" horiz-adv-x="1122" d="M66 0v1626h907v-303h-551v-340h551v-295h-561v-385h561v-303h-907zM319 1733l244 338h301l-360 -338h-185z" />
<glyph unicode="&#xca;" horiz-adv-x="1155" d="M139 0v1626h908v-303h-551v-340h551v-295h-562v-385h562v-303h-908zM244 1840l373 315l374 -320l-133 -100l-241 201l-240 -201z" />
<glyph unicode="&#xcb;" horiz-adv-x="1155" d="M139 0v1626h908v-303h-551v-340h551v-295h-562v-385h562v-303h-908zM254 1878q2 61 44 96t91.5 33t90.5 -40t39 -99.5t-45 -96t-92.5 -32.5t-89.5 39t-38 100zM730 1870q0 61 42 97t91 37t91 -35t42 -97q0 -84 -66.5 -119t-133 -1t-66.5 118z" />
<glyph unicode="&#xcc;" d="M69 2072h301l244 -338h-184zM172 0v1626h336v-1626h-336z" />
<glyph unicode="&#xcd;" horiz-adv-x="657" d="M82 1732l246 338h299l-358 -338h-187zM172 0v1626h336v-1626h-336z" />
<glyph unicode="&#xce;" horiz-adv-x="720" d="M-6 1840l373 315l374 -320l-133 -100l-241 201l-240 -201zM172 0v1626h336v-1626h-336z" />
<glyph unicode="&#xcf;" horiz-adv-x="706" d="M-21 1890q2 61 44 96t91.5 33t90.5 -40t39 -99.5t-45 -96t-92.5 -32.5t-89.5 39t-38 100zM172 0v1626h336v-1626h-336zM455 1882q0 61 42 97t91 37t91 -35t42 -97q0 -84 -66.5 -119t-133 -1t-66.5 118z" />
<glyph unicode="&#xd1;" horiz-adv-x="1636" d="M125 0v1626h330l772 -1059v1059h329v-1626h-317l-774 1092v-1092h-340zM481 1790l25 63q14 37 34.5 76t64.5 84t89 49q82 4 146 -47l135 -100q20 -14 28.5 -19.5t24.5 -12.5t29.5 -5t25.5 12q25 16 42.5 53t29.5 72l19 45l108 -57l-14 -41q-29 -90 -78 -152.5t-107 -74.5 q-76 -16 -176 59l-108 84q-59 43 -97 37q-33 -6 -62.5 -61.5t-29.5 -69.5l-16 -45z" />
<glyph unicode="&#xd2;" horiz-adv-x="1837" d="M94 817q2 227 117 420t308.5 304.5t420.5 111.5q338 -2 579.5 -245t247.5 -585q4 -344 -229 -593.5t-577 -262.5q-229 -8 -431 106.5t-320 313.5t-116 430zM416 797q4 -227 154.5 -378t365.5 -149q242 2 366 156t128 383q2 229 -140.5 377.5t-357.5 152.5t-367.5 -156.5 t-148.5 -385.5zM715 2072h301l244 -338h-184z" />
<glyph unicode="&#xd3;" horiz-adv-x="1837" d="M94 817q2 227 117 420t308.5 304.5t420.5 111.5q338 -2 579.5 -245t247.5 -585q4 -344 -229 -593.5t-577 -262.5q-229 -8 -431 106.5t-320 313.5t-116 430zM416 797q4 -227 154.5 -378t365.5 -149q242 2 366 156t128 383q2 229 -140.5 377.5t-357.5 152.5t-367.5 -156.5 t-148.5 -385.5zM727 1732l246 338h299l-358 -338h-187z" />
<glyph unicode="&#xd4;" horiz-adv-x="1837" d="M94 817q2 227 117 420t308.5 304.5t420.5 111.5q338 -2 579.5 -245t247.5 -585q4 -344 -229 -593.5t-577 -262.5q-229 -8 -431 106.5t-320 313.5t-116 430zM416 797q4 -227 154.5 -378t365.5 -149q242 2 366 156t128 383q2 229 -140.5 377.5t-357.5 152.5t-367.5 -156.5 t-148.5 -385.5zM627 1840l373 315l374 -320l-133 -100l-241 201l-240 -201z" />
<glyph unicode="&#xd5;" horiz-adv-x="1875" d="M94 817q2 227 117 420t308.5 304.5t420.5 111.5q338 -2 579.5 -245t247.5 -585q4 -344 -229 -593.5t-577 -262.5q-229 -8 -431 106.5t-320 313.5t-116 430zM416 797q4 -227 154.5 -378t365.5 -149q242 2 366 156t128 383q2 229 -140.5 377.5t-357.5 152.5t-367.5 -156.5 t-148.5 -385.5zM524 1790l25 63q14 37 33.5 76t63.5 85t89 48q78 6 148 -47l135 -98q70 -53 108 -27q25 16 42.5 53t27.5 72l20 45l107 -55l-12 -43q-29 -88 -79 -151.5t-108 -76.5q-78 -14 -174 60l-108 84q-57 43 -97 39q-12 -2 -24 -13.5t-22.5 -24.5t-18.5 -30.5 t-14.5 -31t-10.5 -23.5l-4 -10l-14 -45z" />
<glyph unicode="&#xd6;" horiz-adv-x="1853" d="M94 817q2 227 117 420t308.5 304.5t420.5 111.5q338 -2 579.5 -245t247.5 -585q4 -344 -229 -593.5t-577 -262.5q-229 -8 -431 106.5t-320 313.5t-116 430zM416 797q4 -227 154.5 -378t365.5 -149q242 2 366 156t128 383q2 229 -140.5 377.5t-357.5 152.5t-367.5 -156.5 t-148.5 -385.5zM579 1876q2 61 44 96t91.5 33t90.5 -40t39 -99.5t-45 -96t-92.5 -32.5t-89.5 39t-38 100zM1055 1868q0 61 42 97t91 37t91 -35t42 -97q0 -84 -66.5 -119t-133 -1t-66.5 118z" />
<glyph unicode="&#xd8;" horiz-adv-x="1875" d="M94 817q2 227 117 420t308.5 304.5t420.5 111.5q268 -2 490 -166l178 209l133 -99l-193 -221q213 -236 219 -553q4 -344 -229 -593.5t-577 -262.5q-270 -8 -500 152l-195 -225l-121 96l197 227q-117 119 -183.5 275.5t-64.5 324.5zM416 797q6 -199 127 -346l680 796 q-125 88 -291 92q-215 4 -367.5 -156.5t-148.5 -385.5zM659 348q127 -80 277 -78q242 2 366 156t128 383q0 188 -93 321z" />
<glyph unicode="&#xd9;" horiz-adv-x="1452" d="M104 557v1069h336v-1046q0 -164 85 -240t225 -76q143 0 225 72t82 248v1042h325v-1100q0 -143 -54 -253.5t-145 -176t-200 -98.5t-229 -35q-285 -4 -467.5 142.5t-182.5 451.5zM467 2072h301l244 -338h-184z" />
<glyph unicode="&#xda;" horiz-adv-x="1464" d="M104 557v1069h336v-1046q0 -164 85 -240t225 -76q143 0 225 72t82 248v1042h325v-1100q0 -143 -54 -253.5t-145 -176t-200 -98.5t-229 -35q-285 -4 -467.5 142.5t-182.5 451.5zM479 1732l246 338h299l-358 -338h-187z" />
<glyph unicode="&#xdb;" horiz-adv-x="1452" d="M104 557v1069h336v-1046q0 -164 85 -240t225 -76q143 0 225 72t82 248v1042h325v-1100q0 -143 -54 -253.5t-145 -176t-200 -98.5t-229 -35q-285 -4 -467.5 142.5t-182.5 451.5zM391 1840l373 315l374 -320l-133 -100l-241 201l-240 -201z" />
<glyph unicode="&#xdc;" horiz-adv-x="1488" d="M104 557v1069h336v-1046q0 -164 85 -240t225 -76q143 0 225 72t82 248v1042h325v-1100q0 -143 -54 -253.5t-145 -176t-200 -98.5t-229 -35q-285 -4 -467.5 142.5t-182.5 451.5zM393 1878q2 61 44 96t91.5 33t90.5 -40t39 -99.5t-45 -96t-92.5 -32.5t-89.5 39t-38 100z M869 1870q0 61 42 97t91 37t91 -35t42 -97q0 -84 -66.5 -119t-133 -1t-66.5 118z" />
<glyph unicode="&#xdf;" horiz-adv-x="1396" d="M86 588v289h102v374q0 176 147.5 294t342.5 120q201 4 352.5 -113.5t153.5 -302.5q6 -205 -176 -336q137 -59 207.5 -155t82.5 -256q20 -227 -148.5 -381t-404.5 -158l-106 -4v313q104 -12 187 59.5t87 176.5q2 106 -84 183t-190 63v295h59q61 0 102.5 52t35.5 116 q-6 59 -51.5 100t-107 39t-102 -50.5t-40.5 -113.5v-1192h-353v588h-96z" />
<glyph unicode="&#xe0;" horiz-adv-x="1372" d="M98 514q-4 227 145.5 400t366.5 171q190 -2 348 -143v121h306v-1063h-320v98q-135 -127 -326 -135q-215 -4 -365.5 161t-154.5 390zM424 522q-2 -113 81 -193.5t193 -80.5q111 -2 193 81.5t80 196.5q-2 115 -82 196t-195 79q-121 -4 -194.5 -84t-75.5 -195zM526 1569h301 l244 -338h-184z" />
<glyph unicode="&#xe1;" horiz-adv-x="1384" d="M98 514q-4 227 145.5 400t366.5 171q190 -2 348 -143v121h306v-1063h-320v98q-135 -127 -326 -135q-215 -4 -365.5 161t-154.5 390zM424 522q-2 -113 81 -193.5t193 -80.5q111 -2 193 81.5t80 196.5q-2 115 -82 196t-195 79q-121 -4 -194.5 -84t-75.5 -195zM602 1214 l246 338h299l-358 -338h-187z" />
<glyph unicode="&#xe2;" horiz-adv-x="1390" d="M98 514q-4 227 145.5 400t366.5 171q190 -2 348 -143v121h306v-1063h-320v98q-135 -127 -326 -135q-215 -4 -365.5 161t-154.5 390zM355 1319l373 315l374 -320l-133 -100l-241 201l-240 -201zM424 522q-2 -113 81 -193.5t193 -80.5q111 -2 193 81.5t80 196.5 q-2 115 -82 196t-195 79q-121 -4 -194.5 -84t-75.5 -195z" />
<glyph unicode="&#xe3;" horiz-adv-x="1380" d="M98 514q-4 227 145.5 400t366.5 171q190 -2 348 -143v121h306v-1063h-320v98q-135 -127 -326 -135q-215 -4 -365.5 161t-154.5 390zM276 1278l25 63q14 37 33.5 76t63.5 85t89 48q78 6 148 -47l135 -98q70 -53 108 -27q25 16 42.5 53t27.5 72l20 45l107 -55l-12 -43 q-29 -88 -79 -151.5t-108 -76.5q-78 -14 -174 60l-108 84q-57 43 -97 39q-12 -2 -24 -13.5t-22.5 -24.5t-18.5 -30.5t-14.5 -31t-10.5 -23.5l-4 -10l-14 -45zM424 522q-2 -113 81 -193.5t193 -80.5q111 -2 193 81.5t80 196.5q-2 115 -82 196t-195 79q-121 -4 -194.5 -84 t-75.5 -195z" />
<glyph unicode="&#xe4;" horiz-adv-x="1359" d="M98 514q-4 227 145.5 400t366.5 171q190 -2 348 -143v121h306v-1063h-320v98q-135 -127 -326 -135q-215 -4 -365.5 161t-154.5 390zM364 1356q2 61 44 96t91.5 33t90.5 -40t39 -99.5t-45 -96t-92.5 -32.5t-89.5 39t-38 100zM424 522q-2 -113 81 -193.5t193 -80.5 q111 -2 193 81.5t80 196.5q-2 115 -82 196t-195 79q-121 -4 -194.5 -84t-75.5 -195zM840 1348q0 61 42 97t91 37t91 -35t42 -97q0 -84 -66.5 -119t-133 -1t-66.5 118z" />
<glyph unicode="&#xe5;" horiz-adv-x="1372" d="M98 514q-4 227 145.5 400t366.5 171q190 -2 348 -143v121h306v-1063h-320v98q-135 -127 -326 -135q-215 -4 -365.5 161t-154.5 390zM424 522q-2 -113 81 -193.5t193 -80.5q111 -2 193 81.5t80 196.5q-2 115 -82 196t-195 79q-121 -4 -194.5 -84t-75.5 -195zM463 1469.5 q0 97.5 69.5 178.5t192.5 81q98 0 164.5 -53.5t82 -129.5t0 -152.5t-82 -130t-164.5 -53.5q-123 0 -192.5 81t-69.5 178.5zM573 1474.5q2 -55.5 42 -100.5t110 -43t107.5 49t36.5 102.5t-42 99.5t-110.5 42t-107.5 -48t-36 -101.5z" />
<glyph unicode="&#xe6;" horiz-adv-x="2168" d="M98 514q-4 227 145.5 400t366.5 171q190 -2 348 -143v121h289q113 51 244 51q260 0 412.5 -168t144.5 -473h-764q14 -96 78.5 -155.5t165.5 -57.5q147 0 241 170l234 -151q-195 -295 -485 -289q-141 6 -254 65v-55h-320v98q-135 -127 -326 -135q-215 -4 -365.5 161 t-154.5 390zM424 522q-2 -113 81 -193.5t193 -80.5q104 -2 187.5 82t83.5 188q0 131 -83 209t-192 74q-121 -4 -194.5 -84t-75.5 -195zM1286 678h424q-12 199 -213 203q-92 2 -149.5 -61.5t-61.5 -141.5z" />
<glyph unicode="&#xe7;" horiz-adv-x="1036" d="M104 535q4 229 166 392t387 160q113 0 232 -53l29 -278q-20 10 -91 34.5t-125 22.5q-123 -2 -195.5 -81t-70.5 -193q0 -113 74 -192t195 -79q115 2 229 82v-297q-154 -72 -268 -71q-231 0 -399.5 162.5t-162.5 390.5zM360 -420l230 359l180 -76l-276 -355z" />
<glyph unicode="&#xe8;" horiz-adv-x="1288" d="M104 569q4 225 143.5 378t381.5 155q260 0 412.5 -168t144.5 -473h-764q14 -96 79.5 -155.5t164.5 -57.5q147 0 241 170l234 -152q-195 -295 -484 -289q-246 6 -401.5 179.5t-151.5 412.5zM424 666h424q-12 199 -213 202q-92 2 -149.5 -61.5t-61.5 -140.5zM450 1556h301 l244 -338h-184z" />
<glyph unicode="&#xe9;" horiz-adv-x="1290" d="M104 569q4 225 143.5 378t381.5 155q260 0 412.5 -168t144.5 -473h-764q14 -96 79.5 -155.5t164.5 -57.5q147 0 241 170l234 -152q-195 -295 -484 -289q-246 6 -401.5 179.5t-151.5 412.5zM424 666h424q-12 199 -213 202q-92 2 -149.5 -61.5t-61.5 -140.5zM454 1216 l246 338h299l-358 -338h-187z" />
<glyph unicode="&#xea;" horiz-adv-x="1292" d="M104 569q4 225 143.5 378t381.5 155q260 0 412.5 -168t144.5 -473h-764q14 -96 79.5 -155.5t164.5 -57.5q147 0 241 170l234 -152q-195 -295 -484 -289q-246 6 -401.5 179.5t-151.5 412.5zM281 1319l373 315l374 -320l-133 -100l-241 201l-240 -201zM424 666h424 q-12 199 -213 202q-92 2 -149.5 -61.5t-61.5 -140.5z" />
<glyph unicode="&#xeb;" horiz-adv-x="1286" d="M104 569q4 225 143.5 378t381.5 155q260 0 412.5 -168t144.5 -473h-764q14 -96 79.5 -155.5t164.5 -57.5q147 0 241 170l234 -152q-195 -295 -484 -289q-246 6 -401.5 179.5t-151.5 412.5zM305 1356q2 61 44 96t91.5 33t90.5 -40t39 -99.5t-45 -96t-92.5 -32.5t-89.5 39 t-38 100zM424 666h424q-12 199 -213 202q-92 2 -149.5 -61.5t-61.5 -140.5zM781 1348q0 61 42 97t91 37t91 -35t42 -97q0 -84 -66.5 -119t-133 -1t-66.5 118z" />
<glyph unicode="&#xec;" horiz-adv-x="686" d="M109 1556h301l243 -337h-186zM209 0v1073h321v-1073h-321z" />
<glyph unicode="&#xed;" horiz-adv-x="694" d="M137 1217l246 337h299l-358 -337h-187zM217 0v1073h322v-1073h-322z" />
<glyph unicode="&#xee;" d="M-14 1323l370 313l377 -317l-133 -100l-244 198l-239 -198zM188 0v1073h322v-1073h-322z" />
<glyph unicode="&#xef;" d="M-16 1354q2 84 69.5 115.5t132 -4t62.5 -119.5t-69.5 -117t-132 4t-62.5 121zM195 0v1073h323v-1073h-323zM459 1348q0 61 42 97t91 37t91 -35t42 -97q0 -84 -65.5 -119t-133 -1t-67.5 118z" />
<glyph unicode="&#xf1;" horiz-adv-x="1218" d="M78 0v1063h319v-117q147 150 328 148q160 -2 263.5 -108.5t103.5 -260.5v-725h-318v647q0 72 -43 118t-125 48q-80 2 -142.5 -55.5t-62.5 -132.5v-625h-323zM217 1280l25 63q10 25 23.5 53.5t38 65.5t57 62.5t67.5 27.5q72 4 147 -47l136 -100q70 -53 108 -27 q25 16 42.5 54t27.5 73l20 45l107 -57l-12 -43q-29 -88 -79.5 -150.5t-107.5 -74.5q-78 -16 -174 59l-108 84q-63 43 -97 37q-12 -2 -24.5 -13.5t-22.5 -24.5t-18 -29.5t-14.5 -30t-10.5 -23.5l-4 -10l-14 -45z" />
<glyph unicode="&#xf2;" horiz-adv-x="1388" d="M96 534.5q2 239.5 181.5 404.5t427.5 165q238 0 409.5 -172t169.5 -410q-2 -244 -176 -407.5t-422 -163.5q-242 0 -417 172t-173 411.5zM424 524q4 -109 82 -187.5t186 -80.5q113 0 195 80.5t76 189.5q-6 121 -87 200t-194 75q-109 -2 -184.5 -84t-73.5 -193zM432 1556 h301l244 -338h-184z" />
<glyph unicode="&#xf3;" horiz-adv-x="1388" d="M96 534.5q2 239.5 181.5 404.5t427.5 165q238 0 409.5 -172t169.5 -410q-2 -244 -176 -407.5t-422 -163.5q-242 0 -417 172t-173 411.5zM424 524q4 -109 82 -187.5t186 -80.5q113 0 195 80.5t76 189.5q-6 121 -87 200t-194 75q-109 -2 -184.5 -84t-73.5 -193zM518 1229 l246 338h299l-358 -338h-187z" />
<glyph unicode="&#xf4;" horiz-adv-x="1378" d="M96 534.5q2 239.5 181.5 404.5t427.5 165q238 0 409.5 -172t169.5 -410q-2 -244 -176 -407.5t-422 -163.5q-242 0 -417 172t-173 411.5zM355 1319l373 315l374 -320l-133 -100l-241 201l-240 -201zM424 524q4 -109 82 -187.5t186 -80.5q113 0 195 80.5t76 189.5 q-6 121 -87 200t-194 75q-109 -2 -184.5 -84t-73.5 -193z" />
<glyph unicode="&#xf5;" horiz-adv-x="1386" d="M96 534.5q2 239.5 181.5 404.5t427.5 165q238 0 409.5 -172t169.5 -410q-2 -244 -176 -407.5t-422 -163.5q-242 0 -417 172t-173 411.5zM332 1280l25 63q14 37 33.5 76t63.5 85t89 48q78 6 148 -47l135 -98q70 -53 108 -27q25 16 42.5 53t27.5 72l20 45l107 -55l-12 -43 q-29 -88 -79 -151.5t-108 -76.5q-78 -14 -174 60l-108 84q-57 43 -97 39q-12 -2 -24 -13.5t-22.5 -24.5t-18.5 -30.5t-14.5 -31t-10.5 -23.5l-4 -10l-14 -45zM424 524q4 -109 82 -187.5t186 -80.5q113 0 195 80.5t76 189.5q-6 121 -87 200t-194 75q-109 -2 -184.5 -84 t-73.5 -193z" />
<glyph unicode="&#xf6;" horiz-adv-x="1384" d="M96 534.5q2 239.5 181.5 404.5t427.5 165q238 0 409.5 -172t169.5 -410q-2 -244 -176 -407.5t-422 -163.5q-242 0 -417 172t-173 411.5zM354 1354q2 61 44 96t91.5 33t90.5 -40t39 -99.5t-45 -96t-92.5 -32.5t-89.5 39t-38 100zM424 524q4 -109 82 -187.5t186 -80.5 q113 0 195 80.5t76 189.5q-6 121 -87 200t-194 75q-109 -2 -184.5 -84t-73.5 -193zM830 1346q0 61 42 97t91 37t91 -35t42 -97q0 -84 -66.5 -119t-133 -1t-66.5 118z" />
<glyph unicode="&#xf7;" horiz-adv-x="1130" d="M115 451v122h921v-122h-921zM473 246q0 41 31 71.5t71.5 30.5t71.5 -30.5t31 -71.5t-31 -72t-71.5 -31t-71.5 31t-31 72zM473 778q0 41 31 72t71.5 31t71.5 -31t31 -72t-31 -71.5t-71.5 -30.5t-71.5 30.5t-31 71.5z" />
<glyph unicode="&#xf8;" horiz-adv-x="1392" d="M96 535q2 240 181.5 404.5t427.5 164.5q199 0 356 -125l139 151l96 -65l-151 -166q141 -170 139 -377q-2 -244 -176 -407.5t-422 -163.5q-180 0 -326 98l-124 -135l-86 63l126 140q-182 176 -180 418zM424 524q2 -96 65 -172l361 396q-76 59 -168 53q-109 -2 -184.5 -84 t-73.5 -193zM575 285q57 -27 117 -29q113 0 195 80.5t76 189.5q-2 72 -37 136l-174 -189q-174 -188 -177 -188z" />
<glyph unicode="&#xf9;" horiz-adv-x="1228" d="M94 403v660h326v-627q0 -94 54 -138t138 -44q82 2 137.5 53t55.5 139v617h315v-668q0 -137 -78.5 -238.5t-193.5 -149.5t-240 -46q-229 2 -371.5 124t-142.5 318zM377 1548h301l244 -338h-184z" />
<glyph unicode="&#xfa;" horiz-adv-x="1232" d="M94 403v660h326v-627q0 -94 54 -138t138 -44q82 2 137.5 53t55.5 139v617h315v-668q0 -137 -78.5 -238.5t-193.5 -149.5t-240 -46q-229 2 -371.5 124t-142.5 318zM434 1216l246 338h299l-358 -338h-187z" />
<glyph unicode="&#xfb;" horiz-adv-x="1224" d="M94 403v660h326v-627q0 -94 54 -138t138 -44q82 2 137.5 53t55.5 139v617h315v-668q0 -137 -78.5 -238.5t-193.5 -149.5t-240 -46q-229 2 -371.5 124t-142.5 318zM273 1321l373 315l374 -320l-133 -100l-241 201l-240 -201z" />
<glyph unicode="&#xfc;" horiz-adv-x="1230" d="M94 403v660h326v-627q0 -94 54 -138t138 -44q82 2 137.5 53t55.5 139v617h315v-668q0 -137 -78.5 -238.5t-193.5 -149.5t-240 -46q-229 2 -371.5 124t-142.5 318zM241 1356q2 61 44 96t91.5 33t90.5 -40t39 -99.5t-45 -96t-92.5 -32.5t-89.5 39t-38 100zM717 1348 q0 61 42 97t91 37t91 -35t42 -97q0 -84 -66.5 -119t-133 -1t-66.5 118z" />
<glyph unicode="&#xff;" horiz-adv-x="1384" d="M66 1063h356l268 -612l264 612h340l-678 -1485h-331l233 504zM428 1356q2 61 44 96t91.5 33t90.5 -40t39 -99.5t-45 -96t-92.5 -32.5t-89.5 39t-38 100zM904 1348q0 61 42 97t91 37t91 -35t42 -97q0 -84 -66.5 -119t-133 -1t-66.5 118z" />
<glyph unicode="&#x152;" horiz-adv-x="2455" d="M94 817q2 227 117 420t308.5 304.5t420.5 111.5q270 -2 494 -170v143h907v-303h-553v-340h553v-295h-561v-385h561v-303h-907v133q-209 -158 -473 -166q-229 -8 -431 106.5t-320 313.5t-116 430zM416 797q4 -227 154.5 -378t365.5 -149q242 2 366 156t128 383 q2 229 -140.5 377.5t-357.5 152.5t-367.5 -156.5t-148.5 -385.5z" />
<glyph unicode="&#x153;" horiz-adv-x="2164" d="M96 540.5q2 239.5 181.5 405.5t427.5 164q233 0 403 -164q145 156 383 156q260 0 412.5 -168t144.5 -473h-764q14 -96 78.5 -155.5t165.5 -57.5q147 0 241 170l234 -152q-195 -295 -485 -289q-231 6 -388 166q-174 -182 -444 -186q-242 0 -417 172t-173 411.5zM424 530 q4 -111 82 -188.5t186 -77.5q113 0 195 81t76 190q-6 119 -87 197.5t-194 76.5q-109 -4 -184.5 -86t-73.5 -193zM1286 666h424q-12 199 -213 202q-92 2 -149.5 -61.5t-61.5 -140.5z" />
<glyph unicode="&#x178;" horiz-adv-x="1476" d="M53 1626h371l326 -536l309 536h373l-504 -856v-770h-334v752zM428 1878q2 61 44 96t91.5 33t90.5 -40t39 -99.5t-45 -96t-92.5 -32.5t-89.5 39t-38 100zM904 1870q0 61 42 97t91 37t91 -35t42 -97q0 -84 -66.5 -119t-133 -1t-66.5 118z" />
<glyph unicode="&#x2000;" horiz-adv-x="1128" />
<glyph unicode="&#x2001;" horiz-adv-x="2257" />
<glyph unicode="&#x2002;" horiz-adv-x="1128" />
<glyph unicode="&#x2003;" horiz-adv-x="2257" />
<glyph unicode="&#x2004;" horiz-adv-x="752" />
<glyph unicode="&#x2005;" horiz-adv-x="564" />
<glyph unicode="&#x2006;" horiz-adv-x="376" />
<glyph unicode="&#x2007;" horiz-adv-x="376" />
<glyph unicode="&#x2008;" horiz-adv-x="282" />
<glyph unicode="&#x2009;" horiz-adv-x="451" />
<glyph unicode="&#x200a;" horiz-adv-x="125" />
<glyph unicode="&#x2010;" horiz-adv-x="1019" d="M111 420v278h823v-278h-823z" />
<glyph unicode="&#x2011;" horiz-adv-x="1019" d="M111 420v278h823v-278h-823z" />
<glyph unicode="&#x2012;" horiz-adv-x="1019" d="M111 420v278h823v-278h-823z" />
<glyph unicode="&#x2013;" horiz-adv-x="1419" d="M111 420v278h1200v-278h-1200z" />
<glyph unicode="&#x2014;" horiz-adv-x="1816" d="M104 420v278h1625v-278h-1625z" />
<glyph unicode="&#x2018;" horiz-adv-x="708" d="M98 909l320 719h186l-209 -719h-297z" />
<glyph unicode="&#x2019;" horiz-adv-x="708" d="M106 909l211 719h295l-319 -719h-187z" />
<glyph unicode="&#x201a;" horiz-adv-x="708" d="M106 -424l211 719h295l-319 -719h-187z" />
<glyph unicode="&#x201c;" horiz-adv-x="1075" d="M90 909l320 719h186l-209 -719h-297zM487 909l320 719h186l-211 -719h-295z" />
<glyph unicode="&#x201d;" horiz-adv-x="1071" d="M94 909l211 719h297l-321 -719h-187zM492 909l210 719h297l-321 -719h-186z" />
<glyph unicode="&#x201e;" horiz-adv-x="1071" d="M94 -424l211 719h297l-321 -719h-187zM492 -424l210 719h297l-321 -719h-186z" />
<glyph unicode="&#x2022;" horiz-adv-x="745" d="M98 766q-2 88 36 152.5t98.5 95t131 33t132 -25.5t104.5 -90.5t45 -150.5q2 -104 -52 -177t-134 -91t-161 -4t-139.5 84t-60.5 174z" />
<glyph unicode="&#x2026;" horiz-adv-x="897" d="M53 94q0 37 25.5 62.5t62.5 27.5q39 2 67 -24.5t32 -65.5q2 -39 -28 -67.5t-69 -26.5t-65.5 29.5t-24.5 64.5zM362 90q2 39 28 64.5t63 27.5q39 2 66.5 -25.5t31.5 -66.5q2 -37 -28.5 -65.5t-67.5 -26.5q-39 0 -67 27.5t-26 64.5zM657 90q0 39 26 64.5t62 27.5 q39 2 67 -25.5t32 -66.5q2 -37 -27 -65.5t-67 -26.5q-39 0 -67 27.5t-26 64.5z" />
<glyph unicode="&#x202f;" horiz-adv-x="451" />
<glyph unicode="&#x205f;" horiz-adv-x="564" />
<glyph unicode="&#x2122;" horiz-adv-x="1552" d="M90 1559v65h572v-65h-250v-725h-76v725h-246zM719 1626h119l249 -692l254 690h113v-784h-76v700l-262 -700h-67l-252 700v-700h-76z" />
<glyph unicode="&#x25fc;" horiz-adv-x="1064" d="M0 0v1065h1065v-1065h-1065z" />
</font>
</defs>
</svg>
